The GM kits (Velocityrange)

   สำหรับท่านที่ทำ Soundfont เอามาฝาก ไว้เป็นแนวทางในการปรับค่า Velocity..
สำหรับชุดกลอง อย่าไปดูอย่างอื่นให้ดูตัวเลข 3 หลักเท่านั้น เช่นถ้าเราอยากปรับ Kick
ก็เปิดโปรแกรม edit ขึ้นมากำหนดให้ Kick มี 8 Folder ในภาค Preset bank
แล้วกำหนดค่า Velo. เริ่มจาก 000-036,037-051...,118-127 เป็นต้น
  ปรับได้อย่างนี้จะทำให้ SF เล่นกับไฟล์ Midi ได้ชัดแจ่วเลย
มีปัญหาสงสัยถามได้ที่ Comment ด้านล่างเลย ขอให้โชคดี 

//  ***** live kit - full mix *****  GM-style mapping
//  Soundfont converted using sfZed and some PERL plus tweaks by peter@drealm.info
//  SoundFont version 2.1
//  E-mu 10K2
//  For SBAWE32
//  By geoffkhan
//  Using SFEDT v1.36:
//  Created Jul 30, 2004

<group> key=b1 ampeg_release=30
<region> lovel=000 hivel=036 sample=kickin1.wav
<region> lovel=037 hivel=051 sample=kickin2.wav
<region> lovel=052 hivel=066 sample=kickin3.wav
<region> lovel=067 hivel=077 sample=kickin4.wav
<region> lovel=078 hivel=092 sample=kickin5.wav
<region> lovel=093 hivel=107 sample=kickin6.wav
<region> lovel=108 hivel=117 sample=kickin7.wav
<region> lovel=118 hivel=127 sample=kickin8.wav
<region> lovel=000 hivel=036 sample=kickovh1.wav
<region> lovel=037 hivel=051 sample=kickovh2.wav
<region> lovel=052 hivel=066 sample=kickovh3.wav
<region> lovel=067 hivel=077 sample=kickovh4.wav
<region> lovel=078 hivel=092 sample=kickovh5.wav
<region> lovel=093 hivel=107 sample=kickovh6.wav
<region> lovel=108 hivel=117 sample=kickovh7.wav
<region> lovel=118 hivel=127 sample=kickovh8.wav
//========================

<group> key=c2 ampeg_release=30
<region> lovel=000 hivel=036 sample=kickin1.wav
<region> lovel=037 hivel=051 sample=kickin2.wav
<region> lovel=052 hivel=066 sample=kickin3.wav
<region> lovel=067 hivel=077 sample=kickin4.wav
<region> lovel=078 hivel=092 sample=kickin5.wav
<region> lovel=093 hivel=107 sample=kickin6.wav
<region> lovel=108 hivel=117 sample=kickin7.wav
<region> lovel=118 hivel=127 sample=kickin8.wav
<region> lovel=000 hivel=036 sample=kickovh1.wav
<region> lovel=037 hivel=051 sample=kickovh2.wav
<region> lovel=052 hivel=066 sample=kickovh3.wav
<region> lovel=067 hivel=077 sample=kickovh4.wav
<region> lovel=078 hivel=092 sample=kickovh5.wav
<region> lovel=093 hivel=107 sample=kickovh6.wav
<region> lovel=108 hivel=117 sample=kickovh7.wav
<region> lovel=118 hivel=127 sample=kickovh8.wav
//========================

<group> key=c#2 ampeg_release=16
<region> lovel=000 hivel=032 sample=rimovh1.wav
<region> lovel=033 hivel=051 sample=rimovh2.wav
<region> lovel=052 hivel=083 sample=rimovh3.wav
<region> lovel=084 hivel=110 sample=rimovh4.wav
<region> lovel=111 hivel=127 sample=rimovh5.wav
<region> lovel=000 hivel=032 sample=rimprox1.wav
<region> lovel=033 hivel=051 sample=rimprox2.wav
<region> lovel=052 hivel=083 sample=rimprox3.wav
<region> lovel=084 hivel=110 sample=rimprox4.wav
<region> lovel=111 hivel=127 sample=rimprox5.wav
//========================

<group> key=d2 ampeg_release=25
<region> lovel=000 hivel=035 sample=snareovh1.wav
<region> lovel=080 hivel=089 sample=snareovh10.wav
<region> lovel=090 hivel=096 sample=snareovh11.wav
<region> lovel=097 hivel=102 sample=snareovh12.wav
<region> lovel=103 hivel=108 sample=snareovh13.wav
<region> lovel=109 hivel=115 sample=snareovh14.wav
<region> lovel=116 hivel=122 sample=snareovh15.wav
<region> lovel=123 hivel=127 sample=snareovh16.wav
<region> lovel=036 hivel=044 sample=snareovh2.wav
<region> lovel=045 hivel=049 sample=snareovh3.wav
<region> lovel=050 hivel=053 sample=snareovh4.wav
<region> lovel=054 hivel=058 sample=snareovh5.wav
<region> lovel=059 hivel=063 sample=snareovh6.wav
<region> lovel=064 hivel=068 sample=snareovh7.wav
<region> lovel=069 hivel=073 sample=snareovh8.wav
<region> lovel=074 hivel=079 sample=snareovh9.wav
<region> lovel=000 hivel=035 sample=snaretimbre1.wav
<region> lovel=080 hivel=089 sample=snaretimbre10.wav
<region> lovel=090 hivel=096 sample=snaretimbre11.wav
<region> lovel=097 hivel=102 sample=snaretimbre12.wav
<region> lovel=103 hivel=108 sample=snaretimbre13.wav
<region> lovel=109 hivel=115 sample=snaretimbre14.wav
<region> lovel=116 hivel=122 sample=snaretimbre15.wav
<region> lovel=123 hivel=127 sample=snaretimbre16.wav
<region> lovel=036 hivel=044 sample=snaretimbre2.wav
<region> lovel=045 hivel=049 sample=snaretimbre3.wav
<region> lovel=050 hivel=053 sample=snaretimbre4.wav
<region> lovel=054 hivel=058 sample=snaretimbre5.wav
<region> lovel=059 hivel=063 sample=snaretimbre6.wav
<region> lovel=064 hivel=068 sample=snaretimbre7.wav
<region> lovel=069 hivel=073 sample=snaretimbre8.wav
<region> lovel=074 hivel=079 sample=snaretimbre9.wav
<region> lovel=000 hivel=035 sample=snaretop1.wav
<region> lovel=080 hivel=089 sample=snaretop10.wav
<region> lovel=090 hivel=096 sample=snaretop11.wav
<region> lovel=097 hivel=102 sample=snaretop12.wav
<region> lovel=103 hivel=108 sample=snaretop13.wav
<region> lovel=109 hivel=115 sample=snaretop14.wav
<region> lovel=116 hivel=122 sample=snaretop15.wav
<region> lovel=123 hivel=127 sample=snaretop16.wav
<region> lovel=036 hivel=044 sample=snaretop2.wav
<region> lovel=045 hivel=049 sample=snaretop3.wav
<region> lovel=050 hivel=053 sample=snaretop4.wav
<region> lovel=054 hivel=058 sample=snaretop5.wav
<region> lovel=059 hivel=063 sample=snaretop6.wav
<region> lovel=064 hivel=068 sample=snaretop7.wav
<region> lovel=069 hivel=073 sample=snaretop8.wav
<region> lovel=074 hivel=079 sample=snaretop9.wav
//========================

<group> key=e2 ampeg_release=25
<region> lovel=000 hivel=035 sample=snareovh1.wav
<region> lovel=080 hivel=089 sample=snareovh10.wav
<region> lovel=090 hivel=096 sample=snareovh11.wav
<region> lovel=097 hivel=102 sample=snareovh12.wav
<region> lovel=103 hivel=108 sample=snareovh13.wav
<region> lovel=109 hivel=115 sample=snareovh14.wav
<region> lovel=116 hivel=122 sample=snareovh15.wav
<region> lovel=123 hivel=127 sample=snareovh16.wav
<region> lovel=036 hivel=044 sample=snareovh2.wav
<region> lovel=045 hivel=049 sample=snareovh3.wav
<region> lovel=050 hivel=053 sample=snareovh4.wav
<region> lovel=054 hivel=058 sample=snareovh5.wav
<region> lovel=059 hivel=063 sample=snareovh6.wav
<region> lovel=064 hivel=068 sample=snareovh7.wav
<region> lovel=069 hivel=073 sample=snareovh8.wav
<region> lovel=074 hivel=079 sample=snareovh9.wav
<region> lovel=000 hivel=035 sample=snaretimbre1.wav
<region> lovel=080 hivel=089 sample=snaretimbre10.wav
<region> lovel=090 hivel=096 sample=snaretimbre11.wav
<region> lovel=097 hivel=102 sample=snaretimbre12.wav
<region> lovel=103 hivel=108 sample=snaretimbre13.wav
<region> lovel=109 hivel=115 sample=snaretimbre14.wav
<region> lovel=116 hivel=122 sample=snaretimbre15.wav
<region> lovel=123 hivel=127 sample=snaretimbre16.wav
<region> lovel=036 hivel=044 sample=snaretimbre2.wav
<region> lovel=045 hivel=049 sample=snaretimbre3.wav
<region> lovel=050 hivel=053 sample=snaretimbre4.wav
<region> lovel=054 hivel=058 sample=snaretimbre5.wav
<region> lovel=059 hivel=063 sample=snaretimbre6.wav
<region> lovel=064 hivel=068 sample=snaretimbre7.wav
<region> lovel=069 hivel=073 sample=snaretimbre8.wav
<region> lovel=074 hivel=079 sample=snaretimbre9.wav
<region> lovel=000 hivel=035 sample=snaretop1.wav
<region> lovel=080 hivel=089 sample=snaretop10.wav
<region> lovel=090 hivel=096 sample=snaretop11.wav
<region> lovel=097 hivel=102 sample=snaretop12.wav
<region> lovel=103 hivel=108 sample=snaretop13.wav
<region> lovel=109 hivel=115 sample=snaretop14.wav
<region> lovel=116 hivel=122 sample=snaretop15.wav
<region> lovel=123 hivel=127 sample=snaretop16.wav
<region> lovel=036 hivel=044 sample=snaretop2.wav
<region> lovel=045 hivel=049 sample=snaretop3.wav
<region> lovel=050 hivel=053 sample=snaretop4.wav
<region> lovel=054 hivel=058 sample=snaretop5.wav
<region> lovel=059 hivel=063 sample=snaretop6.wav
<region> lovel=064 hivel=068 sample=snaretop7.wav
<region> lovel=069 hivel=073 sample=snaretop8.wav
<region> lovel=074 hivel=079 sample=snaretop9.wav
//========================

<group> key=f2 ampeg_release=20
<region> lovel=000 hivel=043 sample=tomovhl1.wav
<region> lovel=044 hivel=093 sample=tomovhl2.wav
<region> lovel=094 hivel=111 sample=tomovhl4.wav
<region> lovel=112 hivel=122 sample=tomovhl5.wav
<region> lovel=123 hivel=127 sample=tomovhl6.wav
<region> lovel=000 hivel=043 sample=tomproxl1.wav
<region> lovel=044 hivel=093 sample=tomproxl2.wav
<region> lovel=094 hivel=111 sample=tomproxl4.wav
<region> lovel=112 hivel=122 sample=tomproxl5.wav
<region> lovel=123 hivel=127 sample=tomproxl6.wav
//========================

<group> key=f#2 ampeg_release=15
<region> lovel=000 hivel=030 sample=hihatovh1.wav
<region> lovel=031 hivel=052 sample=hihatovh2.wav
<region> lovel=053 hivel=070 sample=hihatovh3.wav
<region> lovel=071 hivel=085 sample=hihatovh4.wav
<region> lovel=086 hivel=098 sample=hihatovh5.wav
<region> lovel=099 hivel=111 sample=hihatovh6.wav
<region> lovel=112 hivel=121 sample=hihatovh7.wav
<region> lovel=122 hivel=127 sample=hihatovh8.wav
<region> lovel=000 hivel=030 sample=hihatprox1.wav
<region> lovel=031 hivel=052 sample=hihatprox2.wav
<region> lovel=053 hivel=070 sample=hihatprox3.wav
<region> lovel=071 hivel=085 sample=hihatprox4.wav
<region> lovel=086 hivel=098 sample=hihatprox5.wav
<region> lovel=099 hivel=111 sample=hihatprox6.wav
<region> lovel=112 hivel=121 sample=hihatprox7.wav
<region> lovel=122 hivel=127 sample=hihatprox8.wav
//========================

<group> key=g2 transpose=3 tune=83 ampeg_release=20
<region> lovel=000 hivel=043 sample=tomovhl1.wav
<region> lovel=044 hivel=093 sample=tomovhl2.wav
<region> lovel=094 hivel=111 sample=tomovhl4.wav
<region> lovel=112 hivel=122 sample=tomovhl5.wav
<region> lovel=123 hivel=127 sample=tomovhl6.wav
<region> lovel=000 hivel=043 sample=tomproxl1.wav
<region> lovel=044 hivel=093 sample=tomproxl2.wav
<region> lovel=094 hivel=111 sample=tomproxl4.wav
<region> lovel=112 hivel=122 sample=tomproxl5.wav
<region> lovel=123 hivel=127 sample=tomproxl6.wav
//========================

<group> key=g#2 group=1 off_by=1 ampeg_release=18
<region> lovel=000 hivel=030 sample=hihatovhc1.wav
<region> lovel=031 hivel=054 sample=hihatovhc2.wav
<region> lovel=055 hivel=082 sample=hihatovhc3.wav
<region> lovel=083 hivel=106 sample=hihatovhc4.wav
<region> lovel=107 hivel=121 sample=hihatovhc5.wav
<region> lovel=122 hivel=127 sample=hihatovhc6.wav
<region> lovel=000 hivel=030 sample=hihatproxc1.wav
<region> lovel=031 hivel=054 sample=hihatproxc2.wav
<region> lovel=055 hivel=082 sample=hihatproxc3.wav
<region> lovel=083 hivel=106 sample=hihatproxc4.wav
<region> lovel=107 hivel=121 sample=hihatproxc5.wav
<region> lovel=122 hivel=127 sample=hihatproxc6.wav
//========================

<group> key=a2 ampeg_release=20
<region> lovel=000 hivel=043 sample=tomovhm1.wav
<region> lovel=044 hivel=068 sample=tomovhm2.wav
<region> lovel=069 hivel=093 sample=tomovhm3.wav
<region> lovel=094 hivel=122 sample=tomovhm4.wav
<region> lovel=123 hivel=127 sample=tomovhm6.wav
<region> lovel=000 hivel=043 sample=tomproxm1.wav
<region> lovel=044 hivel=068 sample=tomproxm2.wav
<region> lovel=069 hivel=093 sample=tomproxm3.wav
<region> lovel=094 hivel=122 sample=tomproxm4.wav
<region> lovel=123 hivel=127 sample=tomproxm6.wav
//========================

<group> key=a#2 group=1 off_by=1 ampeg_release=40
<region> lovel=000 hivel=036 sample=hihatovho1.wav
<region> lovel=037 hivel=060 sample=hihatovho2.wav
<region> lovel=061 hivel=085 sample=hihatovho3.wav
<region> lovel=086 hivel=105 sample=hihatovho4.wav
<region> lovel=106 hivel=121 sample=hihatovho5.wav
<region> lovel=122 hivel=127 sample=hihatovho6.wav
<region> lovel=000 hivel=036 sample=hihatproxo1.wav
<region> lovel=037 hivel=060 sample=hihatproxo2.wav
<region> lovel=061 hivel=085 sample=hihatproxo3.wav
<region> lovel=086 hivel=105 sample=hihatproxo4.wav
<region> lovel=106 hivel=121 sample=hihatproxo5.wav
<region> lovel=122 hivel=127 sample=hihatproxo6.wav
//========================

<group> key=b2 transpose=2 ampeg_release=20
<region> lovel=000 hivel=043 sample=tomovhm1.wav
<region> lovel=044 hivel=068 sample=tomovhm2.wav
<region> lovel=069 hivel=093 sample=tomovhm3.wav
<region> lovel=094 hivel=122 sample=tomovhm4.wav
<region> lovel=123 hivel=127 sample=tomovhm6.wav
<region> lovel=000 hivel=043 sample=tomproxm1.wav
<region> lovel=044 hivel=068 sample=tomproxm2.wav
<region> lovel=069 hivel=093 sample=tomproxm3.wav
<region> lovel=094 hivel=122 sample=tomproxm4.wav
<region> lovel=123 hivel=127 sample=tomproxm6.wav
//========================

<group> key=c3 transpose=4 tune=-35 ampeg_release=20
<region> lovel=000 hivel=043 sample=tomovhm1.wav
<region> lovel=044 hivel=068 sample=tomovhm2.wav
<region> lovel=069 hivel=093 sample=tomovhm3.wav
<region> lovel=094 hivel=122 sample=tomovhm4.wav
<region> lovel=123 hivel=127 sample=tomovhm6.wav
<region> lovel=000 hivel=043 sample=tomproxm1.wav
<region> lovel=044 hivel=068 sample=tomproxm2.wav
<region> lovel=069 hivel=093 sample=tomproxm3.wav
<region> lovel=094 hivel=122 sample=tomproxm4.wav
<region> lovel=123 hivel=127 sample=tomproxm6.wav
//========================

<group> key=c#3 ampeg_release=40
<region> lovel=039 hivel=059 sample=crash1ovh1.wav
<region> lovel=000 hivel=038 sample=crash1ovh2.wav
<region> lovel=060 hivel=088 sample=crash1ovh3.wav
<region> lovel=089 hivel=109 sample=crash1ovh4.wav
<region> lovel=110 hivel=120 sample=crash1ovh5.wav
<region> lovel=121 hivel=127 sample=crash1ovh6.wav
//========================

<group> key=d3 transpose=6 ampeg_release=20
<region> lovel=000 hivel=043 sample=tomovhm1.wav
<region> lovel=044 hivel=068 sample=tomovhm2.wav
<region> lovel=069 hivel=093 sample=tomovhm3.wav
<region> lovel=094 hivel=122 sample=tomovhm4.wav
<region> lovel=123 hivel=127 sample=tomovhm6.wav
<region> lovel=000 hivel=043 sample=tomproxm1.wav
<region> lovel=044 hivel=068 sample=tomproxm2.wav
<region> lovel=069 hivel=093 sample=tomproxm3.wav
<region> lovel=094 hivel=122 sample=tomproxm4.wav
<region> lovel=123 hivel=127 sample=tomproxm6.wav
//========================

<group> key=d#3 ampeg_release=30
<region> lovel=000 hivel=041 sample=rideovh1.wav
<region> lovel=042 hivel=065 sample=rideovh2.wav
<region> lovel=066 hivel=083 sample=rideovh3.wav
<region> lovel=084 hivel=102 sample=rideovh4.wav
<region> lovel=103 hivel=118 sample=rideovh5.wav
<region> lovel=119 hivel=127 sample=rideovh6.wav
//========================

<group> key=e3 ampeg_release=40
<region> lovel=000 hivel=060 sample=crash2ovh1.wav
<region> lovel=061 hivel=084 sample=crash2ovh2.wav
<region> lovel=085 hivel=101 sample=crash2ovh3.wav
<region> lovel=102 hivel=119 sample=crash2ovh4.wav
<region> lovel=120 hivel=127 sample=crash2ovh5.wav
//========================

<group> key=f3 ampeg_release=30
<region> lovel=000 hivel=045 sample=bellovh1.wav
<region> lovel=046 hivel=063 sample=bellovh2.wav
<region> lovel=064 hivel=098 sample=bellovh3.wav
<region> lovel=099 hivel=127 sample=bellovh4.wav

ที่มา: www.drealm.info..
*************

ใส่ความเห็น

Fill in your details below or click an icon to log in:

WordPress.com Logo

You are commenting using your WordPress.com account. Log Out / เปลี่ยนแปลง )

Twitter picture

You are commenting using your Twitter account. Log Out / เปลี่ยนแปลง )

Facebook photo

You are commenting using your Facebook account. Log Out / เปลี่ยนแปลง )

Google+ photo

You are commenting using your Google+ account. Log Out / เปลี่ยนแปลง )

Connecting to %s

%d bloggers like this: